conanlcg
超级版主

[2017] [欧美] [喜剧] [WEB-1080P] 萨拉·西尔弗曼:一尘不染/莎拉·席尔蔓:一颗尘埃 Sarah.Silverman.A.Speck.of.Dust.2017.1080p.WEBRip.x264-

-->

帖子完整标题:萨拉·西尔弗曼:一尘不染/莎拉·席尔蔓:一颗尘埃 Sarah.Silverman.A.Speck.of.Dust.2017.1080p.WEBRip.x264-RARBG 1.36GB




◎译  名 萨拉·西尔弗曼:一尘不染 / 莎拉·席尔蔓:一颗尘埃(港) / 萨拉·丝沃曼:一尘不染
◎片  名 Sarah Silverman: A Speck of Dust
◎年  代 2017
◎产  地 美国
◎类  别 喜剧
◎语  言 英语
◎上映日期 2017-05-30(美国)
◎IMDb评分 6.8/10 from 2885 users
◎IMDb链接 https://www.imdb.com/title/tt6948354
◎豆瓣评分 7.3/10 from 322 users
◎豆瓣链接 https://movie.douban.com/subject/27060162/
◎片  长 71分钟
◎编  剧 萨拉·西尔弗曼 Sarah Silverman
◎主  演 萨拉·西尔弗曼 Sarah Silverman


◎标  签 Stand-Up | Netflix | 美国 | 脱口秀 | Comedy | 喜剧 | 2017 | stand-up

◎简  介

  在死里逃生之后的首个喜剧特辑中,萨拉·西尔弗曼分享一系列有趣的事实、可悲的真相和任性而为的瞬间。
  在二十余载的职业生涯中,西尔弗曼曾获得五次艾美奖提名,其中两次捧回奖杯。
Video
ID : 1
Format : AVC
Format/Info : Advanced Video Codec
Format profile : [email protected]
Format settings : CABAC / 4 Ref Frames
Format settings, CABAC : Yes
Format settings, Reference frames : 4 frames
Codec ID : avc1
Codec ID/Info : Advanced Video Coding
Duration : 1 h 11 min
Bit rate : 2 500 kb/s
Width : 1 920 pixels
Height : 1 012 pixels
Display aspect ratio : 1.897
Frame rate mode : Constant
Frame rate : 23.976 (23976/1000) FPS
Color space : YUV
Chroma subsampling : 4:2:0
Bit depth : 8 bits
Scan type : Progressive
Bits/(Pixel*Frame) : 0.054
Stream size : 1.24 GiB (92%)
Writing library : x264 core 152 r2851M ba24899
Encoding settings : cabac=1 / ref=4 / deblock=1:-1:-1 / analyse=0x3:0x113 / me=umh / subme=9 / psy=1 / psy_rd=1.00:0.15 / mixed_ref=1 / me_range=24 / chroma_me=1 / trellis=2 / 8x8dct=1 / cqm=0 / deadzone=21,11 / fast_pskip=1 / chroma_qp_offset=-3 / threads=16 / lookahead_threads=4 / sliced_threads=0 / nr=0 / decimate=1 / interlaced=0 / bluray_compat=0 / constrained_intra=0 / bframes=3 / b_pyramid=2 / b_adapt=2 / b_bias=0 / direct=3 / weightb=1 / open_gop=0 / weightp=2 / keyint=250 / keyint_min=25 / scenecut=40 / intra_refresh=0 / rc_lookahead=50 / rc=2pass / mbtree=1 / bitrate=2500 / ratetol=1.0 / qcomp=0.60 / qpmin=0 / qpmax=69 / qpstep=4 / cplxblur=20.0 / qblur=0.5 / vbv_maxrate=31250 / vbv_bufsize=31250 / nal_hrd=none / filler=0 / ip_ratio=1.40 / aq=3:1.00
Encoded date : UTC 2019-11-09 06:19:00
Tagged date : UTC 2019-11-09 06:19:00
Codec configuration box : avcC

Audio
ID : 2
Format : AAC LC
Format/Info : Advanced Audio Codec Low Complexity
Codec ID : mp4a-40-2
Duration : 1 h 11 min
Duration_LastFrame : -11 ms
Bit rate mode : Constant
Bit rate : 224 kb/s
Channel(s) : 6 channels
Channel layout : C L R Ls Rs LFE
Sampling rate : 48.0 kHz
Frame rate : 46.875 FPS (1024 SPF)
Compression mode : Lossy
Stream size : 114 MiB (8%)
Language : English
Default : Yes
Alternate group : 1
Encoded date : UTC 2019-11-09 06:19:00
Tagged date : UTC 2019-11-09 06:19:00





1 个附件 售价 大小 下载 时间

Sarah.Silverman.A.Speck.of.Dust.2017.1080p.WEBRip.x264-RARBG.torrent 0 金币 15.13K 147 次 1月前

#1楼
发帖时间:2019-11-09 15:37:14   |   回复数:1
911degrees
隐世仙人♂
非常感谢,谢谢分享
1月前 #2楼
游客组