coor
武林高手

[2017] [欧美] [惊悚] [WEB-1080P] 获捕 Captured.2017.1080p.AMZN.WEBRip.DD5.1.x264-AJP69 5.06GB

-->

帖子完整标题:获捕 Captured.2017.1080p.AMZN.WEBRip.DD5.1.x264-AJP69 5.06GB




◎译  名 获捕 / hashtag-Captured
◎片  名 #Captured
◎年  代 2017
◎产  地 美国
◎类  别 惊悚
◎语  言 英语
◎IMDb评分 6.1/10 from 1113 users
◎IMDb链接 https://www.imdb.com/title/tt6856592
◎豆瓣评分 0/10 from 0 users
◎豆瓣链接 https://movie.douban.com/subject/27149793/
◎片  长 81分钟
◎导  演 Joe Homokay
◎编  剧 Lizze Gordon
◎主  演 Lizze Gordon
      Gabrielle Romanello
      Megan Medellin
      Charlie Ian
      Cody Bruno
      Evan Sloan
      科迪·卡梅伦 Cody Cameron
      Lola Kelly


◎标  签 美国电影

◎简  介

  一群贵族高级中学的孩子经营着一个成人聊天室,在那儿他们通过毒品直播性爱派对,向互联网上的付费观众直播。 他们几乎不知道有一个杀人狂热者正在执行消除犯罪网络的任务。
Video
ID : 1
Format : AVC
Format/Info : Advanced Video Codec
Format profile : [email protected]
Format settings : CABAC / 4 Ref Frames
Format settings, CABAC : Yes
Format settings, Reference frames : 4 frames
Codec ID : V_MPEG4/ISO/AVC
Duration : 1 h 21 min
Bit rate mode : Variable
Bit rate : 8 213 kb/s
Maximum bit rate : 15.0 Mb/s
Width : 1 920 pixels
Height : 1 080 pixels
Display aspect ratio : 16:9
Frame rate mode : Constant
Frame rate : 23.976 (24000/1001) FPS
Color space : YUV
Chroma subsampling : 4:2:0
Bit depth : 8 bits
Scan type : Progressive
Bits/(Pixel*Frame) : 0.165
Stream size : 4.69 GiB (93%)
Default : Yes
Forced : No
Color range : Limited
Color primaries : BT.709
Transfer characteristics : BT.709
Matrix coefficients : BT.709

Audio
ID : 2
Format : E-AC-3
Format/Info : Enhanced AC-3
Commercial name : Dolby Digital Plus
Codec ID : A_EAC3
Duration : 1 h 21 min
Bit rate mode : Constant
Bit rate : 640 kb/s
Channel(s) : 6 channels
Channel layout : L R C LFE Ls Rs
Sampling rate : 48.0 kHz
Frame rate : 31.250 FPS (1536 SPF)
Compression mode : Lossy
Stream size : 375 MiB (7%)
Language : English
Service kind : Complete Main
Default : Yes
Forced : No

Text
ID : 3
Format : UTF-8
Codec ID : S_TEXT/UTF8
Codec ID/Info : UTF-8 Plain Text
Duration : 1 h 21 min
Bit rate : 64 b/s
Count of elements : 1513
Stream size : 38.7 KiB (0%)
Language : English
Default : No
Forced : No





1 个附件 售价 大小 下载 时间

Captured.2017.1080p.AMZN.WEBRip.DD5.1.x264-AJP69.torrent 0 金币 25.83K 525 次 6天前

#1楼
发帖时间:2019-12-03 22:48:39   |   回复数:1
911degrees
隐世仙人♂
非常感谢,谢谢分享
5天前 #2楼
游客组