squallzhao
武林盟主

[更 早] [其他] [剧情] [BD-1080P] 杨贵妃 Princess.Yang.Kwei-fei.1955.1080p.BluRay.x264-USURY 8.75GB

-->

帖子完整标题:杨贵妃 Princess.Yang.Kwei-fei.1955.1080p.BluRay.x264-USURY 8.75GB



◎译  名 杨贵妃/Empress Yank Kwei Fei/Princess Yang Kwei-fei
◎片  名 楊貴妃
◎年  代 1955
◎产  地 中国香港,日本
◎类  别 剧情 / 爱情 / 历史
◎语  言 日语
◎上映日期 1955-05-03(日本)
◎IMDb评分 7.2/10 from 1601 users
◎IMDb链接 https://www.imdb.com/title/tt0048820/
◎豆瓣评分 6.2/10 from 1311 users
◎豆瓣链接 https://movie.douban.com/subject/1303564/
◎片  长 98 分钟
◎导  演 沟口健二 Kenji Mizoguchi
◎编  剧 川口松太郎 Matsutar? Kawaguchi / 成泽昌茂 Masashige Narusawa / 依田义贤 Yoshikata Yoda / 陶秦 Ching Doe
◎主  演 京町子 Machiko Ky?
      森雅之 Masayuki Mori
      山村聪 S? Yamamura
      进藤英太郎 Eitar? Shind?
      杉村春子 Haruko Sugimura
      侯景夫 Jingfu Hou
      村田知荣子 Chieko Murata
      小泽荣太郎 Eitar? Ozawa
      村濑幸子 Sachiko Murase
      雾立升 Noboru Kiritachi
      山形勋 Isao Yamagata
      南田洋子 Y?ko Minamida

◎标  签 沟口健二 | 日本 | 日本电影 | 1955 | 历史 | 1950s | 京町子 | 溝口健二

◎简  介

  唐玄宗李隆基(森雅之 饰)痛失爱妃武惠妃,整日愁眉不展,荒废朝政。内有高力士(进藤英太郎 饰)四处搜寻绝世美女,以求讨取皇上开心;外有杨国忠(小泽荣 饰)等希求显贵之人,不遗余力进献子女。驻守边疆的节度使安禄山(山村聪 饰)拜会杨国忠,偶然在柴房见到杨来自乡下的堂妹杨玉环(京町子 饰),惊为天人。在安禄山和高力士的举荐下,杨玉环进入宫中,赢得玄宗欢心。
  
  一人得道,鸡犬升天,杨家兄弟姐妹纷纷入宫,“遂令天下父母心,不重生男重生女。”然杨国忠为相后专横跋扈,鱼肉百姓,使得长安街头怨声载道;又有安禄山狼子野心,图谋天下,太平盛世从此不在……
  
  本片荣获1956年每日电影奖特别奖。

◎获奖情况

  第16届威尼斯电影节 ?(1955)
  主竞赛单元金狮奖(提名) 沟口健二

Video
ID : 1
Format : AVC
Format/Info : Advanced Video Codec
Format profile : [email protected]
Format settings : CABAC / 4 Ref Frames
Format settings, CABAC : Yes
Format settings, Reference frames : 4 frames
Codec ID : V_MPEG4/ISO/AVC
Duration : 1 h 31 min
Bit rate : 13.2 Mb/s
Width : 1 456 pixels
Height : 1 080 pixels
Display aspect ratio : 4:3
Frame rate mode : Constant
Frame rate : 23.976 (24000/1001/189150) FPS
Color space : YUV
Chroma subsampling : 4:2:0
Bit depth : 8 bits
Scan type : Progressive
Bits/(Pixel*Frame) : 0.351
Stream size : 8.43 GiB (96%)
Writing library : x264 core 155 r2901 7d0ff22
Encoding settings : cabac=1 / ref=4 / deblock=1:-3:-3 / analyse=0x3:0x133 / me=umh / subme=9 / psy=1 / psy_rd=1.00:0.00 / mixed_ref=1 / me_range=16 / chroma_me=1 / trellis=2 / 8x8dct=1 / cqm=0 / deadzone=21,11 / fast_pskip=0 / chroma_qp_offset=-2 / threads=24 / lookahead_threads=2 / sliced_threads=0 / nr=0 / decimate=1 / interlaced=0 / bluray_compat=0 / constrained_intra=0 / bframes=3 / b_pyramid=2 / b_adapt=1 / b_bias=0 / direct=3 / weightb=1 / open_gop=0 / weightp=2 / keyint=240 / keyint_min=24 / scenecut=40 / intra_refresh=0 / rc_lookahead=50 / rc=2pass / mbtree=1 / bitrate=13235 / ratetol=1.0 / qcomp=0.60 / qpmin=0 / qpmax=69 / qpstep=4 / cplxblur=20.0 / qblur=0.5 / ip_ratio=1.40 / aq=1:1.00
Language : English
Default : Yes
Forced : No

Audio
ID : 2
Format : FLAC
Format/Info : Free Lossless Audio Codec
Codec ID : A_FLAC
Duration : 1 h 31 min
Bit rate mode : Variable
Bit rate : 495 kb/s
Channel(s) : 1 channel
Channel layout : C
Sampling rate : 48.0 kHz
Frame rate : 11.719 FPS (4096 SPF)
Bit depth : 24 bits
Compression mode : Lossless
Stream size : 323 MiB (4%)
Writing library : libFLAC 1.2.1 (UTC 2007-09-17)
Language : Japanese
Default : Yes
Forced : No

Text
ID : 3
Format : UTF-8
Codec ID : S_TEXT/UTF8
Codec ID/Info : UTF-8 Plain Text
Duration : 1 h 30 min
Bit rate : 47 b/s
Count of elements : 803
Stream size : 31.2 KiB (0%)
Title : English
Language : English
Default : Yes
Forced : Yes

Menu
00:00:00.000 : en:00:00:00.000
00:08:57.454 : en:00:08:57.454
00:12:31.209 : en:00:12:31.209
00:18:11.924 : en:00:18:11.924
00:23:20.024 : en:00:23:20.024
00:28:32.210 : en:00:28:32.210
00:38:11.706 : en:00:38:11.706
00:42:47.315 : en:00:42:47.315
00:49:54.742 : en:00:49:54.742
00:54:11.039 : en:00:54:11.039
01:00:12.734 : en:01:00:12.734
01:05:34.764 : en:01:05:34.764
01:10:27.306 : en:01:10:27.306
01:16:48.521 : en:01:16:48.521
01:21:23.295 : en:01:21:23.295
01:28:13.163 : en:01:28:13.163





1 个附件 售价 大小 下载 时间

Princess.Yang.Kwei-fei.1955.1080p.BluRay.x264-USURY.zip 0 金币 88.17K 434 次 1月前

#1楼
发帖时间:2020-11-27 09:15:38   |   回复数:1
wybt
武林高手
感谢分享。新鲜。
1月前 #2楼
游客组