squallzhao
武林盟主

[2013] [日本] [剧情] [BD-1080P] 地狱为何恶劣 Why.Dont.You.Play.in.Hell.2013.REPACK.LIMITED.1080p.BluRay.x264-USURY 8.7

-->

帖子完整标题:地狱为何恶劣 Why.Dont.You.Play.in.Hell.2013.REPACK.LIMITED.1080p.BluRay.x264-USURY 8.75GB



◎译  名 地狱为何恶劣/Jigoku de naze warui/Why Don't You Play in Hell?/一代电影粉皮(港)/为什么不去地狱玩?/地狱开麦拉(台)/地狱有什么不好
◎片  名 地獄でなぜ悪い
◎年  代 2013
◎产  地 日本
◎类  别 剧情 / 喜剧
◎语  言 日语
◎上映日期 2013-09-28
◎IMDb评分 7.2/10 from 7044 users
◎IMDb链接 https://www.imdb.com/title/tt2409302/
◎豆瓣评分 7.5/10 from 13685 users
◎豆瓣链接 https://movie.douban.com/subject/19955790/
◎片  长 129分钟
◎导  演 园子温 Shion Sono
◎编  剧 园子温 Shion Sono
◎主  演 国村隼 Jun Kunimura
      二阶堂富美 Fumi Nikaidou
      堤真一 Shin'ichi Tsutsumi
      长谷川博己 Hiroki Hasegawa
      星野源 Gen Hoshino
      友近 Tomochika
      板尾创路 Itsuji Itao
      尾上宽之 Hiroyuki Onoue
      坂口拓 Tak Sakaguchi
      渡边哲 Tetsu Watanabe
      永冈佑 Tasuku Nagaoka
      北村昭博 Akihiro Kitamura
      神乐坂惠 Megumi Kagurazaka
      深水元基 Motoki Fukami
      诹访太朗 Tar? Suwa
      裴正明 Jyonmyon Pe
      今村美乃 Yoshino Imamura
      古藤ロレナ Kotou Lorena
      岩井志麻子 Shimako Iwai
      原菜乃华 Nanoka Hara
      鸫 Tsugumi
      成海璃子 Riko Narumi
      绪方义博 Denden

◎标  签 日本 | 园子温 | 日本电影 | 2013 | 剧情 | 堤真一 | 喜剧 | 电影

◎简  介

  十年前,黑帮头目武藤(国村隼 饰)的老婆静江(友近 饰)为保护老公大开杀戒,锒铛入狱。转眼刑期将满,武藤无论如何希望实现老婆长久以来的梦想,那就是让他们的独生女美津子(二阶堂富美 饰)成为一名电影演员。但是拍摄期间美津子偷偷逃跑,刚愎的武藤还骂跑了专业摄影团队。关键时刻,美津子带着一名搞不清状况的路人桥本公次(星野源 饰)回来。根本没接触过电影的公次被逼担任导演职务,走投无路之际他求助于始终怀有电影梦想的超级影迷平田(长谷川博己 饰)。在此期间,武藤组的死对头池上组在老大池上(堤真一 饰)的率领下准备发动一场血腥的黑道战争。
  
  平田等人以此为蓝本,拍摄了一部虚实结合、癫狂暴乱的黑帮火并大戏!

◎获奖情况

  第70届威尼斯电影节 ?(2013)
  地平线单元奖最佳影片(提名) 园子温
  
  第37届日本电影学院奖 ?(2014)
  最佳新人 星野源
  
  第38届多伦多国际电影节 ?(2013)
  观众选择奖午夜疯狂单元 园子温
  
  第8届亚洲电影大奖 ?(2014)
  最佳女配角(提名) 二阶堂富美
  最佳剪接(提名) 伊藤润一
  最佳美术指导(提名) 稲垣尚夫
  
  第17届美国在线影评人协会奖 ?(2013)
  最佳非北美上映影片
  
  第1届豆瓣电影年度榜单 ?(2014)
  评分最高的日本电影(提名)

Video
ID : 1
Format : AVC
Format/Info : Advanced Video Codec
Format profile : [email protected]
Format settings : CABAC / 5 Ref Frames
Format settings, CABAC : Yes
Format settings, Reference frames : 5 frames
Codec ID : V_MPEG4/ISO/AVC
Duration : 2 h 9 min
Bit rate : 8 124 kb/s
Width : 1 920 pixels
Height : 800 pixels
Display aspect ratio : 2.40:1
Frame rate mode : Constant
Frame rate : 23.976 FPS
Color space : YUV
Chroma subsampling : 4:2:0
Bit depth : 8 bits
Scan type : Progressive
Bits/(Pixel*Frame) : 0.221
Stream size : 7.37 GiB (84%)
Writing library : x264 core 146 r2538 121396c
Encoding settings : cabac=1 / ref=5 / deblock=1:0:0 / analyse=0x3:0x133 / me=umh / subme=7 / psy=1 / psy_rd=1.00:0.00 / mixed_ref=1 / me_range=16 / chroma_me=1 / trellis=1 / 8x8dct=1 / cqm=0 / deadzone=21,11 / fast_pskip=0 / chroma_qp_offset=-2 / threads=60 / lookahead_threads=6 / sliced_threads=0 / nr=0 / decimate=1 / interlaced=0 / bluray_compat=0 / constrained_intra=0 / bframes=3 / b_pyramid=2 / b_adapt=2 / b_bias=0 / direct=3 / weightb=1 / open_gop=0 / weightp=2 / keyint=250 / keyint_min=23 / scenecut=40 / intra_refresh=0 / rc_lookahead=50 / rc=2pass / mbtree=1 / bitrate=8124 / ratetol=1.0 / qcomp=0.60 / qpmin=0 / qpmax=69 / qpstep=4 / cplxblur=20.0 / qblur=0.5 / ip_ratio=1.40 / aq=1:1.00
Language : English
Default : Yes
Forced : No

Audio
ID : 2
Format : DTS
Format/Info : Digital Theater Systems
Codec ID : A_DTS
Duration : 2 h 9 min
Bit rate mode : Constant
Bit rate : 1 509 kb/s
Channel(s) : 6 channels
Channel layout : C L R Ls Rs LFE
Sampling rate : 48.0 kHz
Frame rate : 93.750 FPS (512 SPF)
Bit depth : 24 bits
Compression mode : Lossy
Stream size : 1.37 GiB (16%)
Language : Japanese
Default : Yes
Forced : No

Text
ID : 3
Format : UTF-8
Codec ID : S_TEXT/UTF8
Codec ID/Info : UTF-8 Plain Text
Duration : 2 h 9 min
Bit rate : 51 b/s
Count of elements : 1702
Stream size : 48.9 KiB (0%)
Language : English
Default : Yes
Forced : Yes

Menu
00:00:00.000 : en:00:00:00.000
00:14:37.085 : en:00:14:37.085
00:26:37.471 : en:00:26:37.471
00:41:02.710 : en:00:41:02.710
00:53:20.072 : en:00:53:20.072
01:02:11.478 : en:01:02:11.478
01:16:02.933 : en:01:16:02.933
01:25:09.771 : en:01:25:09.771
01:34:55.106 : en:01:34:55.106
01:48:00.015 : en:01:48:00.015
01:56:23.310 : en:01:56:23.310
02:06:13.775 : en:02:06:13.775





1 个附件 售价 大小 下载 时间

Why.Dont.You.Play.in.Hell.2013.REPACK.LIMITED.1080p.BluRay.x264-USURY.zip 0 金币 88.24K 448 次 1月前

#1楼
发帖时间:2020-11-27 09:42:39   |   回复数:0
游客组